Torrent Details For "Sajjan Singh Rangroot 2018 1GB Hindi Movie WEB-DL 720p [x264 AAC]"

Sajjan Singh Rangroot 2018 1GB Hindi Movie WEB-DL 720p [x264 AAC]

To download this torrent, you need a BitTorrent client: Vuze or BTGuard
Download this torrent
Download using Magnet Link

Health:
Seeds: 6
Leechers: 1
Completed:
Last Checked: 07-12-2018 10:01:52

Uploader Reputation points : 77
External: Torrent



BTGuard - BitTorrent Anonymously


Write a Review for the Uploader:   0   Say Thanks with one good review:


Details
Name:Sajjan Singh Rangroot 2018 1GB Hindi Movie WEB-DL 720p [x264 AAC]
Description:


[size="200"]Sajjan Singh Rangroot2018 1GB Hindi Movie WEB-DL 720p [x264 AAC][/size]


[color='fuchsia'][size='medium']http://www.imdb.com/title/tt7762982/[/size][/color]




Code:

General
Complete name                            : Sajjan Singh Rangroot2018 1GB Hindi Movie WEB-DL 720p [x264 AAC].mp4
Format                                  : MPEG-4
Format profile                          : Base Media
Codec ID                                : isom (isom/iso2/avc1/mp41)
File size                                : 1.27 GiB
Duration                                : 2 h 22 min
Overall bit rate mode                    : Variable
Overall bit rate                        : 1 271 kb/s
Encoded date                            : UTC 1970-01-01 00:00:00
Tagged date                              : UTC 1970-01-01 00:00:00
Writing application                      : Lavf52.94.0
Video
ID                                      : 1
Format                                  : AVC
Format/Info                              : Advanced Video Codec
Format profile                          : [email protected]
Format settings                          : CABAC / 2 Ref Frames
Format settings, CABAC                  : Yes
Format settings, RefFrames              : 2 frames
Codec ID                                : avc1
Codec ID/Info                            : Advanced Video Coding
Duration                                : 2 h 22 min
Duration_FirstFrame                      : -67 ms
Bit rate                                : 1 104 kb/s
Width                                    : 1 280 pixels
Height                                  : 720 pixels
Display aspect ratio                    : 16:9
Frame rate mode                          : Variable
Frame rate                              : 29.970 FPS
Minimum frame rate                      : 9.990 FPS
Maximum frame rate                      : 29.970 FPS
Color space                              : YUV
Chroma subsampling                      : 4:2:0
Bit depth                                : 8 bits
Scan type                                : Progressive
Bits/(Pixel*Frame)                      : 0.040
Stream size                              : 1.09 GiB (87%)
Writing library                          : x264 core 112 r1834 a51816a
Encoding settings                        : cabac=1 / ref=1 / deblock=1:0:0 / analyse=0x1:0 / me=dia / subme=2 / psy=1 / psy_rd=0.00:0.00 / mixed_ref=0 / me_range=16 / chroma_me=1 / trellis=0 / 8x8dct=0 / cqm=0 / deadzone=21,11 / fast_pskip=1 / chroma_qp_offset=0 / threads=12 / sliced_threads=0 / nr=0 / decimate=1 / interlaced=0 / constrained_intra=0 / bframes=3 / b_pyramid=0 / b_adapt=1 / b_bias=0 / direct=3 / weightb=0 / open_gop=0 / weightp=2 / keyint=250 / keyint_min=25 / scenecut=40 / intra_refresh=0 / rc_lookahead=40 / rc=abr / mbtree=1 / bitrate=1104 / ratetol=1.0 / qcomp=0.60 / qpmin=10 / qpmax=51 / qpstep=4 / ip_ratio=1.41 / aq=1:1.00
Encoded date                            : UTC 1970-01-01 00:00:00
Tagged date                              : UTC 1970-01-01 00:00:00
Audio
ID                                      : 2
Format                                  : AAC
Format/Info                              : Advanced Audio Codec
Format profile                          : LC
Codec ID                                : mp4a-40-2
Duration                                : 2 h 22 min
Bit rate mode                            : Variable
Bit rate                                : 165 kb/s
Channel(s)                              : 2 channels
Channel positions                        : Front: L R
Sampling rate                            : 48.0 kHz
Frame rate                              : 46.875 FPS (1024 SPF)
Compression mode                        : Lossy
Stream size                              : 169 MiB (13%)
Encoded date                            : UTC 1970-01-01 00:00:00
Tagged date                              : UTC 1970-01-01 00:00:00














YouTube Video:
Category:Movies
Language:Aucune/N/D
Total Size:1.27 GB
Info Hash:F10D89714B08C77D492931D14F496ABB5B9A957F
Added By:Pherarim
Date Added:07-12-2018 09:50:31
Torrent Status:Torrent Verified by SaM Super Administrator on 7th December, 2018


Ratings:Not Yet Rated (Log in to rate it)


Tracker:
udp://tracker.opentrackr.org:1337/announce

This Torrent also has backup trackers
URLSeedersLeechersCompleted
udp://tracker.opentrackr.org:1337/announce210
udp://tracker.coppersurfer.tk:6969/announce200
udp://zer0day.to:1337/announce000
udp://tracker.pirateparty.gr:6969/announce200
udp://shadowshq.yi.org:6969/announce000
udp://eddie4.nl:6969/announce000
udp://tracker.leechers-paradise.org:6969/announce000
udp://p4p.arenabg.ch:1337/announce000
udp://p4p.arenabg.com:1337/announce000
udp://glotorrents.pw:6969/announce000
udp://tracker.pubt.net:2710/announce000
udp://tracker.openbittorrent.com:80/announce000
udp://open.demonii.com:1337/announce000


File List: 



Warning! Do not Download Torrents Without a VPN!
Your IP Address is .   Location is
Your Internet Provider and Government can track your torrent Activity! Hide your IP ADDRESS with a VPN!
We strongly recommend using SpyOFF VPN to anonymize your Torrenting.It's FREE!
START YOUR FREE TRIAL NOW!


Comments
No comments still posted