Torrent Details For "Mortal Engines 2018 720p HDCAM x264 [MW]"

Mortal Engines 2018 720p HDCAM x264 [MW]

To download this torrent, you need a BitTorrent client: Vuze or BTGuard
Download this torrent
Download using Magnet Link

Health:
Seeds: 43
Leechers: 34
Completed: 940 
Last Checked: 09-12-2018 04:46:21

Uploader Reputation points : 5274
External: Torrent



BTGuard - BitTorrent Anonymously


Write a Review for the Uploader:   20   Say Thanks with one good review:


Details
Name:Mortal Engines 2018 720p HDCAM x264 [MW]
Description:
 
 General
Format : Matroska
Format version : Version 4 / Version 2
File size : 1.10 GiB
Duration : 1 h 58 min
Overall bit rate : 1 328 kb/s
 Video
ID : 1
Format : AVC
Format/Info : Advanced Video Codec
Format profile : [email protected]  Format settings : CABAC / 4 Ref Frames
Format settings, CABAC : Yes
Format settings, RefFrames : 4 frames
Codec ID : V_MPEG4/ISO/AVC
Duration : 1 h 58 min
Bit rate : 1 200 kb/s
Width : 1 280 pixels
Height : 536 pixels
Display aspect ratio : 2.40:1
Frame rate mode : Constant
Frame rate : 29.970 (30000/1001) FPS
Color space : YUV
Chroma subsampling : 4:2:0
Bit depth : 8 bits
Scan type : Progressive
Bits/(Pixel*Frame) : 0.058
Stream size : 1 015 MiB (90%)
Writing library : x264 core 155 r2901 7d0ff22
Default : Yes
Forced : No
 Audio
ID : 2
Format : AAC
Format/Info : Advanced Audio Codec
Format profile : LC
Codec ID : A_AAC-2
Duration : 1 h 58 min
Bit rate : 128 kb/s
Channel(s) : 2 channels
Channel positions : Front: L R
Sampling rate : 48.0 kHz
Frame rate : 46.875 FPS (1024 SPF)
Compression mode : Lossy
Stream size : 109 MiB (10%)
Language : English
Default : Yes
Forced : No
     Click To View Image  http://pichub.site/image/c0PxJ            http://pichub.site/image/c0sDh               http://pichub.site/image/c0XH5                  http://pichub.site/image/c09Yk                  http://pichub.site/image/c03gj                  http://pichub.site/image/c0Znr
 
YouTube Video:
Category:Movies
Language:English  English
Total Size:1.10 GB
Info Hash:26EBAB209B704B6569AC9A94E80023EDB07824F6
Added By:MovieFreak Verified UploaderMovie Pirate
Date Added:07-12-2018 10:07:47
Torrent Status:Torrent Verified


Ratings:Not Yet Rated (Log in to rate it)


Tracker:
udp://tracker.coppersurfer.tk:6969/announce

This Torrent also has backup trackers
URLSeedersLeechersCompleted
udp://tracker.coppersurfer.tk:6969/announce1412254
udp://tracker.pirateparty.gr:6969/announce1412254
udp://tracker.tiny-vps.com:6969/announce000
udp://9.rarbg.to:2730/announce53252
udp://tracker.opentrackr.org:1337/announce75145
udp://tracker.leechers-paradise.org:6969/announce000
udp://public.popcorn-tracker.org:6969/announce000
udp://tracker.vanitycore.co:6969/announce3235


File List: 



Warning! Do not Download Torrents Without a VPN!
Your IP Address is .   Location is
Your Internet Provider and Government can track your torrent Activity! Hide your IP ADDRESS with a VPN!
We strongly recommend using SpyOFF VPN to anonymize your Torrenting.It's FREE!
START YOUR FREE TRIAL NOW!


Comments
No comments still posted