Login
Username:
Password:
Remember Me:
[Signup]
[Recover Account]
Friends
BTScene
Friendly site

Free Courses Online
Friendly site

ETTV Community
Friendly site

KaranPC
Friendly site

P2PDL.com
Friendly site

Free Tutorials & Courses
Friendly site
Torrent Details For "Juliet Naked 2018 1080p WEB-DL DD 5 1 x264 [MW]"

Juliet Naked 2018 1080p WEB-DL DD 5 1 x264 [MW]

To download this torrent, you need a BitTorrent client: Vuze or BTGuard
Download this torrent
Download using Magnet Link

Health:
Seeds: 109
Leechers: 144
Completed: 706 
Last Checked: 25-10-2018 06:34:21

Uploader Reputation points : 4972
External: Torrent



BTGuard - BitTorrent Anonymously


Write a Review for the Uploader:   20   Say Thanks with one good review:


Details
Name:Juliet Naked 2018 1080p WEB-DL DD 5 1 x264 [MW]
Description:


General
Format                                   : Matroska
Format version                           : Version 4 / Version 2
File size                                : 1.74 GiB
Duration                                 : 1 h 37 min

Video
ID                                       : 1
Format                                   : AVC
Format/Info                              : Advanced Video Codec
Format profile                           : [email protected]
Format settings                          : CABAC / 4 Ref Frames
Format settings, CABAC                   : Yes
Format settings, RefFrames               : 4 frames
Codec ID                                 : V_MPEG4/ISO/AVC
Duration                                 : 1 h 37 min
Bit rate                                 : 2 200 kb/s
Width                                    : 1 912 pixels
Height                                   : 796 pixels
Display aspect ratio                     : 2.40:1
Frame rate mode                          : Constant
Frame rate                               : 23.976 (24000/1001) FPS
Color space                              : YUV
Chroma subsampling                       : 4:2:0
Bit depth                                : 8 bits
Scan type                                : Progressive
Bits/(Pixel*Frame)                       : 0.060
Stream size                              : 1.48 GiB (85%)
Writing library                          : x264 core 155 r2901 7d0ff22
Default                                  : Yes
Forced                                   : No

Audio
ID                                       : 2
Format                                   : AC-3
Format/Info                              : Audio Coding 3
Codec ID                                 : A_AC3
Duration                                 : 1 h 37 min
Bit rate mode                            : Constant
Bit rate                                 : 384 kb/s
Channel(s)                               : 6 channels
Channel positions                        : Front: L C R, Side: L R, LFE
Sampling rate                            : 48.0 kHz
Frame rate                               : 31.250 FPS (1536 SPF)
Bit depth                                : 16 bits
Compression mode                         : Lossy
Stream size                              : 268 MiB (15%)
Language                                 : English
Service kind                             : Complete Main
Default                                  : Yes
Forced                                   : No

http://pichub.site/image/d3YR8
http://pichub.site/image/d3aKJ
http://pichub.site/image/d3IP5
http://pichub.site/image/d3RJh
http://pichub.site/image/d3Shj
http://pichub.site/image/d3Dor
YouTube Video:
Category:Movies
Language:English  English
Total Size:1.74 GB
Info Hash:4DA0CFA329AC63468D10BB53FA652AD99E835C70
Added By:MovieFreak Verified UploaderMovie Pirate
Date Added:24-10-2018 13:33:19
Torrent Status:Torrent Verified


Ratings:Not Yet Rated (Log in to rate it)


Tracker:
udp://tracker.coppersurfer.tk:6969/announce

This Torrent also has backup trackers
URLSeedersLeechersCompleted
udp://tracker.coppersurfer.tk:6969/announce2925155
udp://tracker.pirateparty.gr:6969/announce2925155
udp://tracker.coppersurfer.tk:6969/announce2925155
udp://tracker.tiny-vps.com:6969/announce41027
udp://9.rarbg.me:2740/announce000
udp://9.rarbg.to:2790/announce2982
udp://public.popcorn-tracker.org:6969/announce21033
udp://tracker.vanitycore.co:6969/announce2923
udp://tracker.opentrackr.org:1337/announce82050
udp://open.stealth.si:80/announce41126


File List: 



Warning! Do not Download Torrents Without a VPN!
Your IP Address is .   Location is
Your Internet Provider and Government can track your torrent Activity! Hide your IP ADDRESS with a VPN!
We strongly recommend using SpyOFF VPN to anonymize your Torrenting.It's FREE!
START YOUR FREE TRIAL NOW!


Comments
No comments still posted